reklama

Zobrazit příspěvky

Tato sekce Vám umožňuje zobrazit všechny příspěvky tohoto uživatele. Prosím uvědomte si, že můžete vidět příspěvky pouze z oblastí Vám přístupných.


Témata - Tech7

Stran: [1] 2
1
Televizory / Staré televizory
« kdy: 31. 07. 2016, 15:57:00 »
Televizory ve výloze, Praha 1970 (celé album stojí za prohlédnutí)

PRAHA Oct. 1970 pic23 by ed, on Flickr

2
Neshání někdo pokojovku? Na jeden pěkný model jsem narazil na Aukru

http://aukro.cz/pokojova-antena-i5295198571.html



:)


3
Na sluchátka se to nedá poslouchat. Tipnul bych špatnou konverzi do sterea.
Než jsem to dopsal, je to v pohodě, asi si toho někdo všiml.

Edit: Další část filmu opět špatná.

4
Zemské digitální vysílání (DVB-T) / Nejede Cukrák
« kdy: 06. 11. 2013, 01:02:30 »
Zaznamenal jsem to chvíli po půlnoci. Všechny tři muxy. Že by neplánovaná výluka? V plánovaných není uvedena.

5
Narazil jsem na úvahu o budoucnosti TV. Mimochodem diskuse pod článkem je zajímavá sonda na názor k TV vysílání mezi specifickou skupinou uživatelů PC.
http://pctuning.tyden.cz/hardware/multimedia-zvuk-tv/28286-uvaha-tv-patri-do-praveku-poridite-si-novou-s-dvb-t2

6
Zdravím,
dorazil k nám signál mux4, ale díky jeho "specifickým" streamům řeším vhodný software, který to zvládne. Mnou oblíbený Avidemux se absolutně nechytá ani na SD, ani na HD (na HD se nechytal i u muxu3, SD z muxů ČRa vždy naprosto bezproblémově).
Jak postupujete ve zpracování nahrávek z mux4 a pomocí kterého softwaru?

7
Zdravím, při jedné cestě po Praze jsem narazil na pro mě dosud neznámý typ antény a tak jsem popadl mobil a nafotil tento úkaz. Omluvte (ne)kvalitu, byl použit optický zoom na mobilu :) Nevíte k čemu slouží?



Další fotky:
http://tech776.sweb.cz/img/antena-01.jpg
http://tech776.sweb.cz/img/antena-02.jpg
http://tech776.sweb.cz/img/antena-03.jpg

8
Nevěřil jsem vlastním uším, ale je to tak, Nova vysílá jednokanálový zvuk u pořadu Chceme žít s vámi z roku 2013.

General
Complete name                    : H:\TV\2013-05-19_15-32-11_NOVA_Chceme žít s vámi.mpg
Format                           : MPEG-PS
File size                        : 90.2 MiB
Duration                         : 3mn 28s
Overall bit rate                 : 3 623 Kbps

Video
ID                               : 224 (0xE0)
Format                           : MPEG Video
Format version                   : Version 2
Format profile                   : Main@Main
Format settings, BVOP            : Yes
Format settings, Matrix          : Default
Format settings, GOP             : M=3, N=12
Duration                         : 3mn 28s
Bit rate mode                    : Variable
Bit rate                         : 3 359 Kbps
Width                            : 720 pixels
Height                           : 576 pixels
Display aspect ratio             : 16:9
Frame rate                       : 25.000 fps
Standard                         : PAL
Color space                      : YUV
Chroma subsampling               : 4:2:0
Bit depth                        : 8 bits
Scan type                        : Interlaced
Scan order                       : Top Field First
Bits/(Pixel*Frame)               : 0.324
Stream size                      : 83.7 MiB (93%)

Audio
ID                               : 192 (0xC0)
Format                           : MPEG Audio
Format version                   : Version 1
Format profile                   : Layer 2
Duration                         : 3mn 28s
Bit rate mode                    : Constant
Bit rate                         : 192 Kbps
Channel(s)                       : 1 channel
Sampling rate                    : 48.0 KHz
Video delay                      : -438ms
Stream size                      : 4.78 MiB (5%)



9
V televizi už jsem viděl ledacos, ale tohle je na mořskou nemoc.

http://www.ulozto.cz/xLiBhRv/ukazka-vlneni-2013-02-16-16-55-00-ct-1-prilis-mladi-na-lasku-mpg
Původní televizní hra z cyklu Tak se ptám o prvním citovém vzplanutí i zodpovědnosti (1980)

10
Digitální rozhlas / České DAB multiplexy
« kdy: 17. 11. 2012, 13:00:42 »
Teleko

1.10.2012 přidán ČRo 1 – Radiožurnál, 64 kbps
10.11.2012 vložena pozice TEST, 64 kbps

Stav 11.11.2012 12 12:00
Cesko resetNUTNY, MP2 mono 64 kbps
CRo 1, AAC 64 kbps
CRo 2, MP2 128 kbps Joint stereo
CRo 3, AAC cca 80 kbps
CRo D-dur, AAC 64 kbps
CRo LEONARDO, AAC 64 kbps
GAMA RADIO, AAC 64 kbps
CRo WAVE, MP2 128 kbps Joint stereo
Radio Vaticana, AAC cca 56 kbps
RADIO PROGLAS, AAC 64 kbps
RTL 102.5, AAC 64 kbps
RTL Classic, AAC 64 kbps
RTL Groove, AAC 64 kbps
RTL ItalianStyle, AAC 64 kbps
TEST, AAC 64 kbps





15.11.2012 pozice TEST přejmenována na SeeJay



12:00:05 start vysílání SeeJay Rádia v DAB, první stanice vysílající na základě digitální licence
http://www.youtube.com/watch?v=BKHHV_Z-J-w, evidentně to ženou přes analog
originální nahrávka bez úprav http://www.ulozto.cz/x9wWir8/seejay-radio-start-vysilani-v-dab-2012-11-15-aac (několik skoků ve zvuku je způsobeno špatným příjmem)

stav  17.11.2012 12:15  pozice Cesko resetNUTNY přejmenována na CRo Cesko a SeeJay na SeeJay Radio
CRo 1, AAC 64 kbps
CRo 2, MP2 128 kbps Joint stereo
CRo 3, AAC cca 80 kbps
CRo Cesko, MP2 mono 64 kbps
CRo D-dur, AAC 64 kbps
CRo LEONARDO, AAC AAC 64 kbps
CRo WAVE, MP2 128 kbps Joint stereo
GAMA RADIO, AAC 64 kbps
RADIO PROGLAS, AAC 64 kbps
Radio Vaticana, AAC cca 56 kbps
RTL 102.5, AAC 64 kbps
RTL Classic, AAC 64 kbps
RTL Groove, AAC 64 kbps
RTL ItalianStyle, AAC 64 kbps
SeeJay Radio, AAC 64 kbps




RTI

11.1.2013 Spuštěn vysílač v Plzni, multiplex obsahuje jen Rádio Proglas
Rádio Proglas, 64 kbit/s DAB+ (MPEG4)
21.1.2013 Spuštěn vysílač v Českých Budějovicích
25.1.2013 Spuštěn vysílač na Klínovci
8.3.2013 SeeJay Radio zahájilo vysílání v digitální síti RTIcz v západních a jižních Čechách, 72 kbit/s DAB+ (MPEG4)

12
Právě běží na Nově Policajt v Africe v úžasné analogové kvalitě... ale řízli to na 16:9 :)


13
Otvírám téma, do kterého můžete dávat zajímavosti, které jste na obrazovce zahlédli :D

Dnes dvojité logo na TV Nova: (2011-08-19--17-32-09)



Video:
http://www.youtube.com/watch?v=Iy5V-OT0oc4


14
Televizory / Příjímače v českých domácnostech
« kdy: 22. 03. 2011, 00:16:35 »
Narazil jsem na malou sbírku fotografií, pěkná ukázka jaké přijímače se vyskytují v českých domácnostech. Konec dohadů o nadvládě 4:3 nebo 16:9, CRT, LCD či plazma :D
http://happymondays.cnews.cz/2011/dnes-soutezime-o-televizni-tuner-msi-digivox-slim-hd/

15
Zdravím všechny dobré lidi :)

Nenahrával jste někdo finále Česko Slovensko má Talent? Jde mi o vystoupení NH6.

Nahrával jsem, ale bohužel společná anténa zaúřadovala, přesvědčit se můžete sami http://www.youtube.com/watch?v=T-6pGSLrsT4 předem upozorňuji, že se jedná o hiphop/rap ;)

Stran: [1] 2

reklama