Autor Téma: Barrandov PLUS  (Přečteno 22907 krát)

Petr Marecek

  • Profík
  • *****
  • Příspěvků: 1 034
    • Zobrazit profil
    • E-mail
Re:Barrandov PLUS
« Odpověď #15 kdy: 06. 05. 2015, 01:11:13 »
Kdyby to dali na tvb misto ranniho animacka,tak ok, ale dat to na detsky kanal,to je extrem a zverstvo.

Reklama

  • Stálý člen
  • *****
  • Příspěvků: 0


Mako952

  • Stálý člen
  • ***
  • Příspěvků: 135
    • Zobrazit profil
    • E-mail
Re:Barrandov PLUS
« Odpověď #16 kdy: 06. 05. 2015, 06:43:34 »
Od 19.5. take soutěž ostrihano na Barrandov plus od 5:15 do 6:15


Jiří Job

  • Závislák
  • ****
  • Příspěvků: 298
    • Zobrazit profil
    • E-mail
Re:Barrandov PLUS
« Odpověď #17 kdy: 06. 05. 2015, 22:41:27 »
Je to klasicky po Česku. Ráno děti budou mít jako raníček ty prasnice co věští a odpoledne stříhání psů.


Roman Čech

  • Člen
  • **
  • Příspěvků: 80
  • 49°56'27.596"N, 15°5'52.295"E-místo příjmu(GPS)
    • Zobrazit profil
Re:Barrandov PLUS
« Odpověď #18 kdy: 07. 05. 2015, 18:12:23 »
Zdravím...Barrandov Plus již v Mux 3 vysílá svou prom smyčku.
1x tv Samsung UE50ES5500+1x tv Samsung UE40ES5500
1X anténa ColorSupra naklopená na 45°
Zesilovač na svorkách Teroz 453+rozbočovač
Svod max.18m
Přijímané kanály č:33,37,42,46,47,51,55,57,58,59,60
Za inverze německé muxy na kanálech č.22,27-nekódované,28-kódován


SB1

  • Stálý člen
  • ***
  • Příspěvků: 106
    • Zobrazit profil
Re:Barrandov PLUS
« Odpověď #19 kdy: 07. 05. 2015, 18:18:59 »
Brno Kojal 59 no problem ;D

Reklama

  • Stálý člen
  • *****
  • Příspěvků: 0


Stasi-DDR

  • Profík
  • *****
  • Příspěvků: 1 030
    • Zobrazit profil
Re:Barrandov PLUS
« Odpověď #20 kdy: 07. 05. 2015, 18:45:10 »
V SL až od 15. května!!!!!!!!!
Veďte mě, následujte nebo jděte z cesty!


Roman Čech

  • Člen
  • **
  • Příspěvků: 80
  • 49°56'27.596"N, 15°5'52.295"E-místo příjmu(GPS)
    • Zobrazit profil
Re:Barrandov PLUS
« Odpověď #21 kdy: 07. 05. 2015, 18:48:40 »
Ano to jsem četl také,tak asi mají smyčku pouze v DVB-T.Ale i tak moc dík za odpověď.
A už mlčím,ať nezasekávám vlákno určené pro DVB-T otázkou k DVB-S.
1x tv Samsung UE50ES5500+1x tv Samsung UE40ES5500
1X anténa ColorSupra naklopená na 45°
Zesilovač na svorkách Teroz 453+rozbočovač
Svod max.18m
Přijímané kanály č:33,37,42,46,47,51,55,57,58,59,60
Za inverze německé muxy na kanálech č.22,27-nekódované,28-kódován


Lukáš Polák

  • Profík
  • *****
  • Příspěvků: 2 686
  • Bývalý redaktor DigiZone.cz, nyní Český rozhlas
    • Zobrazit profil
    • Digitální rádio
    • E-mail
Re:Barrandov PLUS
« Odpověď #22 kdy: 07. 05. 2015, 18:48:57 »
Start v 18.05   rozlišení (zatím) 544x576
Z Cukráku byl start přesně v 18.00.
Od září 2007 do ledna 2016 byl redaktorem DigiZone.cz. O oblast digitálního vysílání se zajímá již od roku 2001. Od února 2016 má na starosti web Českého rozhlasu Digital: http://www.rozhlas.cz/digital/


Jaroslav Honzík

  • Profík
  • *****
  • Příspěvků: 1 598
    • Zobrazit profil
    • E-mail
Re:Barrandov PLUS
« Odpověď #23 kdy: 07. 05. 2015, 18:55:18 »
nějaké info ohledně satelitu? kdy to poběží i mě?
DVB-T/T2: Löbau-nejde,Ještěd-28,31,43,52,60
FM: CZ,DE,PL
DAB/DAB+:Löbau-9A,5C,Žižkov/BH-12C, někdy Teleko 11A či 5D, někdy Berlín 10B a 12D
DVB-S/S2:Motorizovaný systém-dle paraboly 80cm a možnostem, ale i tak je toho dost.


Lukáš Polák

  • Profík
  • *****
  • Příspěvků: 2 686
  • Bývalý redaktor DigiZone.cz, nyní Český rozhlas
    • Zobrazit profil
    • Digitální rádio
    • E-mail
Od září 2007 do ledna 2016 byl redaktorem DigiZone.cz. O oblast digitálního vysílání se zajímá již od roku 2001. Od února 2016 má na starosti web Českého rozhlasu Digital: http://www.rozhlas.cz/digital/


Stasi-DDR

  • Profík
  • *****
  • Příspěvků: 1 030
    • Zobrazit profil
Re:Barrandov PLUS
« Odpověď #25 kdy: 07. 05. 2015, 19:30:17 »
Tak znova (opakování je matkou moudrosti), v SL až od 15. května!!!!!!!!!
Veďte mě, následujte nebo jděte z cesty!


Lukáš Polák

  • Profík
  • *****
  • Příspěvků: 2 686
  • Bývalý redaktor DigiZone.cz, nyní Český rozhlas
    • Zobrazit profil
    • Digitální rádio
    • E-mail
Re:Barrandov PLUS
« Odpověď #26 kdy: 07. 05. 2015, 19:36:47 »
Moc dík pane Polák za parametry.Zkoušel už je někdo naladit?
Kdybyste si tu zprávu přečetl celou, máte tam napsáno, že na satelitu se to teprve objeví.
Od září 2007 do ledna 2016 byl redaktorem DigiZone.cz. O oblast digitálního vysílání se zajímá již od roku 2001. Od února 2016 má na starosti web Českého rozhlasu Digital: http://www.rozhlas.cz/digital/


Lukáš Polák

  • Profík
  • *****
  • Příspěvků: 2 686
  • Bývalý redaktor DigiZone.cz, nyní Český rozhlas
    • Zobrazit profil
    • Digitální rádio
    • E-mail
Re:Barrandov PLUS
« Odpověď #27 kdy: 07. 05. 2015, 19:37:20 »
Parametry streamu (promo smyčky) - vyjetina z MediaInfo

Video
ID                                       : 6657 (0x1A01)
Menu ID                                  : 2052 (0x804)
Format                                   : MPEG Video
Format version                           : Version 2
Format profile                           : Main@Main
Format settings, BVOP                    : Yes
Format settings, Matrix                  : Custom
Format settings, GOP                     : Variable
Format settings, picture structure       : Frame
Codec ID                                 : 2
Duration                                 : 38mn 8s
Bit rate mode                            : Variable
Bit rate                                 : 2 280 Kbps
Maximum bit rate                         : 5 250 Kbps
Width                                    : 544 pixels
Height                                   : 576 pixels
Display aspect ratio                     : 16:9
Frame rate                               : 25.000 fps
Color space                              : YUV
Chroma subsampling                       : 4:2:0
Bit depth                                : 8 bits
Scan type                                : Interlaced
Scan order                               : Top Field First
Compression mode                         : Lossy
Bits/(Pixel*Frame)                       : 0.291
Stream size                              : 622 MiB (88%)

Audio #1
ID                                       : 6658 (0x1A02)
Menu ID                                  : 2052 (0x804)
Format                                   : MPEG Audio
Format version                           : Version 1
Format profile                           : Layer 2
Mode                                     : Joint stereo
Codec ID                                 : 3
Duration                                 : 38mn 8s
Bit rate mode                            : Constant
Bit rate                                 : 128 Kbps
Channel(s)                               : 2 channels
Sampling rate                            : 48.0 KHz
Compression mode                         : Lossy
Delay relative to video                  : -563ms
Stream size                              : 34.9 MiB (5%)
Language                                 : Czech

Audio #2
ID                                       : 6660 (0x1A04)
Menu ID                                  : 2052 (0x804)
Format                                   : MPEG Audio
Format version                           : Version 1
Format profile                           : Layer 2
Codec ID                                 : 3
Duration                                 : 38mn 8s
Bit rate mode                            : Constant
Bit rate                                 : 64.0 Kbps
Channel(s)                               : 1 channel
Sampling rate                            : 48.0 KHz
Compression mode                         : Lossy
Delay relative to video                  : -563ms
Stream size                              : 17.5 MiB (2%)
Language                                 : Czech
Language, more info                      : Visual impaired commentary
descriptor_tag_extension                 : 6 / 6
« Poslední změna: 07. 05. 2015, 19:38:59 od Lukáš Polák »
Od září 2007 do ledna 2016 byl redaktorem DigiZone.cz. O oblast digitálního vysílání se zajímá již od roku 2001. Od února 2016 má na starosti web Českého rozhlasu Digital: http://www.rozhlas.cz/digital/


Horal

  • Profík
  • *****
  • Příspěvků: 691
    • Zobrazit profil
Re:Barrandov PLUS
« Odpověď #28 kdy: 08. 05. 2015, 09:45:43 »
poděkovat je namístě, ale nesmyslnou citací "za...." celou stranu diskuse-to mi hlava nebere.


duchodce1

  • Nováček
  • *
  • Příspěvků: 7
    • Zobrazit profil
    • E-mail
Re:Barrandov PLUS
« Odpověď #29 kdy: 08. 05. 2015, 10:42:18 »
Tak jen nevím, proč před dvěma roky ČT nezačala vysílat Déčko a ART na tomto třetím celoplošném muxu. Vedení ČT divákům vnucovalo názor, že v žádné celoplošné síti není dostatek "místa " pro další program? Dnes je v tímto muxem vysíláno devět televizních stanic.   Vysílání Déčka a ARTu začalo v mux 3 až po velké nevoli nespokojených diváku koncem září. Že by ČT měla v úmyslu zpozorovat z koncesí Pařízkův Mux1a tzv. RS7? Nebo nějaký tunýlek?