Autor Téma: stv1 hd - bitrate v dvb-t  (Přečteno 4395 krát)

jirkazdevitky

  • Závislák
  • ****
  • Příspěvků: 444
    • Zobrazit profil
    • E-mail
stv1 hd - bitrate v dvb-t
« kdy: 26. 04. 2014, 22:22:56 »
přijímá někdo v dvb-t tento program a může napsat kolik má z nahrávky bitrate?
« Poslední změna: 26. 04. 2014, 22:33:00 od jirkazdevitky »

Reklama

  • Stálý člen
  • *****
  • Příspěvků: 0


Sanzi

  • Nováček
  • *
  • Příspěvků: 12
    • Zobrazit profil
Re:stv1 hd - bitrate v dvb-t
« Odpověď #1 kdy: 27. 04. 2014, 11:03:29 »
Bible, The (TV seriál 2013) je Bit rate : 7 412 Kbps , 7 664 Kbps, 7 882 Kbps atd...  :)

mam tu nahravku Mahuliena, zlatá panna a je tam:
Kód: [Vybrat]
General
ID                                       : 1 (0x1)
Complete name                            : C:\Mahuliena, zlatá panna (HD).ts
Format                                   : MPEG-TS
File size                                : 4.64 GiB
Duration                                 : 1h 30mn
Overall bit rate mode                    : Variable
Overall bit rate                         : 7 370 Kbps

Video
ID                                       : 3302 (0xCE6)
Menu ID                                  : 1 (0x1)
Format                                   : AVC
Format/Info                              : Advanced Video Codec
Format profile                           : High@L4.0
Format settings, CABAC                   : Yes
Format settings, ReFrames                : 4 frames
Codec ID                                 : 27
Duration                                 : 1h 30mn
Bit rate                                 : 6 812 Kbps
Width                                    : 1 920 pixels
Height                                   : 1 080 pixels
Display aspect ratio                     : 16:9
Frame rate                               : 25.000 fps
Color space                              : YUV
Chroma subsampling                       : 4:2:0
Bit depth                                : 8 bits
Scan type                                : MBAFF
Bits/(Pixel*Frame)                       : 0.131
Stream size                              : 4.28 GiB (92%)

« Poslední změna: 27. 04. 2014, 11:22:58 od Sanzi »


jirkazdevitky

  • Závislák
  • ****
  • Příspěvků: 444
    • Zobrazit profil
    • E-mail
Re:stv1 hd - bitrate v dvb-t
« Odpověď #2 kdy: 27. 04. 2014, 11:22:07 »
mam tu nahravku Mahuliena, zlatá panna a je tam:
Kód: [Vybrat]
General
ID                                       : 1 (0x1)
Complete name                            : C:\Mahuliena, zlatá panna (HD).ts
Format                                   : MPEG-TS
File size                                : 4.64 GiB
Duration                                 : 1h 30mn
Overall bit rate mode                    : Variable
Overall bit rate                         : 7 370 Kbps

Video
ID                                       : 3302 (0xCE6)
Menu ID                                  : 1 (0x1)
Format                                   : AVC
Format/Info                              : Advanced Video Codec
Format profile                           : High@L4.0
Format settings, CABAC                   : Yes
Format settings, ReFrames                : 4 frames
Codec ID                                 : 27
Duration                                 : 1h 30mn
Bit rate                                 : 6 812 Kbps
Width                                    : 1 920 pixels
Height                                   : 1 080 pixels
Display aspect ratio                     : 16:9
Frame rate                               : 25.000 fps
Color space                              : YUV
Chroma subsampling                       : 4:2:0
Bit depth                                : 8 bits
Scan type                                : MBAFF
Bits/(Pixel*Frame)                       : 0.131
Stream size                              : 4.28 GiB (92%)


Tak to jsem nečekal že bude přenosová rychlost u stv1 tak malá, u stejné délky 90 minut vychází film z čt1 přes dvb-t na cca 6,8-7 GB, bitrate má 11,5 mb/s

Přijímáš stv 1 jen přes dvb-t nebo i z kabelovky?
« Poslední změna: 27. 04. 2014, 11:31:44 od jirkazdevitky »


jirkazdevitky

  • Závislák
  • ****
  • Příspěvků: 444
    • Zobrazit profil
    • E-mail
Re:stv1 hd - bitrate v dvb-t
« Odpověď #3 kdy: 27. 04. 2014, 11:38:04 »
Bible, The (TV seriál 2013) je Bit rate : 7 412 Kbps , 7 664 Kbps, 7 882 Kbps atd...  :)

Je fajn že se ti tu pohádku podařilo nahrát, v nativu dávali minulý víkend asi taky další slovenské pohádky: šípková růženka, falošný princ a galoše štastia, nemáš náhodou některou nahrávku? Nestihl jsem zkontrolovat


Jan Novák

  • Profík
  • *****
  • Příspěvků: 2 445
    • Zobrazit profil
    • E-mail
Re:stv1 hd - bitrate v dvb-t
« Odpověď #4 kdy: 27. 04. 2014, 13:26:29 »
Tak to jsem nečekal že bude přenosová rychlost u stv1 tak malá, u stejné délky 90 minut vychází film z čt1 přes dvb-t na cca 6,8-7 GB, bitrate má 11,5 mb/s
Těch 11,5Mb/s u ČT1 z RS7 musí být veliká náhoda, to v té době musela ČT2 i ČT4 vysílat něco rozmazaného nebo černobílého. Protože průměrně vychází na kanál asi 7Mb/s. Nebo je to z DVB-T ale u UPC?

Reklama

  • Stálý člen
  • *****
  • Příspěvků: 0


pajas2

  • Profík
  • *****
  • Příspěvků: 724
    • Zobrazit profil
    • E-mail
Re:stv1 hd - bitrate v dvb-t
« Odpověď #5 kdy: 27. 04. 2014, 13:31:57 »
Tak to jsem nečekal že bude přenosová rychlost u stv1 tak malá, u stejné délky 90 minut vychází film z čt1 přes dvb-t na cca 6,8-7 GB, bitrate má 11,5 mb/s
Těch 11,5Mb/s u ČT1 z RS7 musí být veliká náhoda, to v té době musela ČT2 i ČT4 vysílat něco rozmazaného nebo černobílého. Protože průměrně vychází na kanál asi 7Mb/s. Nebo je to z DVB-T ale u UPC?
Kolem 11 Mbit/s má ČT 1 HD na Astře 23,5E. V DVB-T RS7 je to průměrně 4,8 Mbit/s (obraz+zvuk).
DVB-S: tuner 3x DVB-S2; motor (cca 45°E-cca 10°W); solo 23,5°E/19,2°E
DVB-T: tuner 1x DVB-T; od Krašova přes Ještěd, Krásné po Javořici,  Cukrák + celá Praha
FM: tuner; 5prvková anténa; rotátor
DAB+: Yamaha T-D500
DreamBox 7080 HD s 2 TB HDD (4 tunery)


micha

  • Stálý člen
  • ***
  • Příspěvků: 147
    • Zobrazit profil
    • E-mail
Re:stv1 hd - bitrate v dvb-t
« Odpověď #6 kdy: 28. 04. 2014, 12:09:04 »
Pro HD a kódování v H.264/AVC je bit rate optimální i z hlediska DVB-T kanálu.
LG 32LB580V-ZM * DENON RCD-M39
HTPC (OpenELEC) * NAS


ivovi

  • Profík
  • *****
  • Příspěvků: 1 540
    • Zobrazit profil
Re:stv1 hd - bitrate v dvb-t
« Odpověď #7 kdy: 28. 04. 2014, 13:04:56 »
Test vcera vecer, DVB-T, zaznam 10 minut kazdy, postupne jeden po druhem.
  STV1HD (film, zvetseny) video tok asi 9 Mbit/s
  CT1HD (film, puvodni HD) video tok asi 3 Mbit/s
  CT2HD (film, puvodni HD) video tok asi 6 Mbit/s


jirkazdevitky

  • Závislák
  • ****
  • Příspěvků: 444
    • Zobrazit profil
    • E-mail
Re:stv1 hd - bitrate v dvb-t
« Odpověď #8 kdy: 14. 05. 2014, 10:53:35 »
Test vcera vecer, DVB-T, zaznam 10 minut kazdy, postupne jeden po druhem.
  STV1HD (film, zvetseny) video tok asi 9 Mbit/s
  CT1HD (film, puvodni HD) video tok asi 3 Mbit/s
  CT2HD (film, puvodni HD) video tok asi 6 Mbit/s

ahoj, můžu se tě zeptat jestli přijímáš stv1 hd přes dvb-t nebo v dvb-t přes kabelovku? většina lidí na digizone psala, že se datový tok pohybuje mezi 6-8 mbps, tak nevím čím to může být, díky, Jirka


ivovi

  • Profík
  • *****
  • Příspěvků: 1 540
    • Zobrazit profil
Re:stv1 hd - bitrate v dvb-t
« Odpověď #9 kdy: 14. 05. 2014, 11:47:16 »
DVB-T z V. Javoriny.  Byl to jen jeden 10 minutovy test, navic udaje z kazdeho prehravace/analyzatoru se dost ruzni. Taky je rozdil Mbps a mbps, kdyz uz jde o presnost. Rozdil 1 Mbit/s bych neresil.