reklama

Autor Téma: tv barrandov nové logo?  (Přečteno 5673 krát)

Ondřej Honeger

  • Stálý člen
  • ***
  • Příspěvků: 127
    • Zobrazit profil
    • E-mail

Reklama

  • Stálý člen
  • *****
  • Příspěvků: 0

reklama



Primemedia

  • Člen
  • **
  • Příspěvků: 64
    • Zobrazit profil
Re:tv barrandov nové logo?
« Odpověď #1 kdy: 23. 06. 2013, 12:32:41 »
Podle mně ano. Je to jeho nové logo ale docela mi to vadí a myslím si že to předtím je lepší ale to je asi jenom nezvyk ale stejně to tv a ta hvězda jako kdyby přišlo tornádo.


vasek812

  • Člen
  • **
  • Příspěvků: 62
    • Zobrazit profil
    • E-mail
Re:tv barrandov nové logo?
« Odpověď #2 kdy: 23. 06. 2013, 15:21:19 »
Mě se to líbí. Hlavně ten slogan.  :)


lukefry21

  • Nováček
  • *
  • Příspěvků: 18
    • Zobrazit profil
    • E-mail
Re:tv barrandov nové logo?
« Odpověď #3 kdy: 23. 06. 2013, 16:57:38 »
Takže už tak velké logo ještě zvětšili tím, že k němu přidali tv? Naprosto zbytečný a pouze obtěžující krok... :/


Primemedia

  • Člen
  • **
  • Příspěvků: 64
    • Zobrazit profil
Re:tv barrandov nové logo?
« Odpověď #4 kdy: 23. 06. 2013, 18:08:18 »
Mě se to líbí. Hlavně ten slogan.  :)
No vzhledem ke studiu Barrandov to je hezké ale u televize bych nepřeháněl ale není nijak špatný to je pravda.

Reklama

  • Stálý člen
  • *****
  • Příspěvků: 0

reklama



s.s.rock

  • Závislák
  • ****
  • Příspěvků: 473
    • Zobrazit profil
    • E-mail
Re:tv barrandov nové logo?
« Odpověď #5 kdy: 23. 06. 2013, 19:03:05 »
Já si myslím že to tv tam ve finále nebude ale to uvidíme až zítra po 12té. ;-)


Primemedia

  • Člen
  • **
  • Příspěvků: 64
    • Zobrazit profil
Re:tv barrandov nové logo?
« Odpověď #6 kdy: 23. 06. 2013, 20:49:16 »
Schválně kolik lidí se na to bude dívat jenom kvůli tomu.


s.s.rock

  • Závislák
  • ****
  • Příspěvků: 473
    • Zobrazit profil
    • E-mail
Re:tv barrandov nové logo?
« Odpověď #7 kdy: 24. 06. 2013, 03:51:25 »
Schválně kolik lidí se na to bude dívat jenom kvůli tomu.
Tam ani tak nejde o dívání se jako o kouknuti se. ;-)


Primemedia

  • Člen
  • **
  • Příspěvků: 64
    • Zobrazit profil
Re:tv barrandov nové logo?
« Odpověď #8 kdy: 24. 06. 2013, 06:48:50 »
Tam ani tak nejde o dívání se jako o kouknuti se. ;-)
Tak tedy se bude dost lidí pokoukávat na romantické Kde najdeš někoho, jako jsem já? (1/2).


s.s.rock

  • Závislák
  • ****
  • Příspěvků: 473
    • Zobrazit profil
    • E-mail
Re:tv barrandov nové logo?
« Odpověď #9 kdy: 24. 06. 2013, 12:40:02 »
Tak co funguje vám někomu už preladeny Barrandov, já to ladil z Ještědu už 3x a pořád ta stejná černá obrazovka, co to? :-(


Tech7

  • Závislák
  • ****
  • Příspěvků: 419
    • Zobrazit profil
    • E-mail
Re:tv barrandov nové logo?
« Odpověď #10 kdy: 24. 06. 2013, 12:40:25 »
Logo zdá se zůstává stejné, ke změně parametrů došlo ve 12:13:00, kdy na původní pozici zmizely data aby se za chvilku vrátili s hláškou o přeladění. Aktuálně jsou vysílány v mux2 dvě pozice pod názvem BARRANDOV TV. PID viz příloha.

Hláška o změně parametrů:
General
Complete name                    : H:\TV\2013-06-24_12-34-00_BARRANDOV TV_Kde najdeš někoho, jako jsem já (1).mpg
Format                           : MPEG-PS
File size                        : 6.70 MiB
Duration                         : 1mn 0s
Overall bit rate                 : 933 Kbps

Video
ID                               : 224 (0xE0)
Format                           : MPEG Video
Format version                   : Version 2
Format profile                   : Main@Main
Format settings, BVOP            : Yes
Format settings, Matrix          : Default
Format settings, GOP             : M=3, N=12
Duration                         : 1mn 0s
Bit rate mode                    : Variable
Bit rate                         : 722 Kbps
Width                            : 720 pixels
Height                           : 576 pixels
Display aspect ratio             : 16:9
Frame rate                       : 25.000 fps
Standard                         : PAL
Color space                      : YUV
Chroma subsampling               : 4:2:0
Bit depth                        : 8 bits
Scan type                        : Interlaced
Scan order                       : Top Field First
Bits/(Pixel*Frame)               : 0.070
Stream size                      : 5.19 MiB (77%)

Audio
ID                               : 192 (0xC0)
Format                           : MPEG Audio
Format version                   : Version 1
Format profile                   : Layer 2
Duration                         : 1mn 0s
Bit rate mode                    : Constant
Bit rate                         : 192 Kbps
Channel(s)                       : 2 channels
Sampling rate                    : 48.0 KHz
Video delay                      : -489ms
Stream size                      : 1.38 MiB (21%)



Nová pozice Barrandov tv:
General
Complete name                    : H:\TV\2013-06-24_12-34-01_BARRANDOV TV_.mpg
Format                           : MPEG-PS
File size                        : 22.8 MiB
Duration                         : 58s 440ms
Overall bit rate                 : 3 270 Kbps

Video
ID                               : 224 (0xE0)
Format                           : MPEG Video
Format version                   : Version 2
Format profile                   : Main@Main
Format settings, BVOP            : Yes
Format settings, Matrix          : Default
Duration                         : 58s 440ms
Bit rate mode                    : Variable
Bit rate                         : 3 012 Kbps
Width                            : 720 pixels
Height                           : 576 pixels
Display aspect ratio             : 16:9
Frame rate                       : 25.000 fps
Standard                         : PAL
Color space                      : YUV
Chroma subsampling               : 4:2:0
Bit depth                        : 8 bits
Scan type                        : Interlaced
Scan order                       : Top Field First
Bits/(Pixel*Frame)               : 0.291
Stream size                      : 21.0 MiB (92%)

Audio
ID                               : 192 (0xC0)
Format                           : MPEG Audio
Format version                   : Version 1
Format profile                   : Layer 2
Duration                         : 58s 368ms
Bit rate mode                    : Constant
Bit rate                         : 192 Kbps
Channel(s)                       : 2 channels
Sampling rate                    : 48.0 KHz
Video delay                      : -426ms
Stream size                      : 1.34 MiB (6%)




« Poslední změna: 24. 06. 2013, 12:46:37 od Tech7 »
DVB-T: Intel Core i3-530, TechniSat AirStar2, AVerTV Volar HD Pro
DAB: Iriver B20, Iriver B20, Pure One Mini Series II, Tesco DR1403R-CE


Ondřej Honeger

  • Stálý člen
  • ***
  • Příspěvků: 127
    • Zobrazit profil
    • E-mail
Re:tv barrandov nové logo?
« Odpověď #11 kdy: 24. 06. 2013, 15:05:47 »
omlouvám se myslel jsem že barrandov bude mít nové logo ale asi ne
« Poslední změna: 24. 06. 2013, 15:09:12 od Ondřej Honeger »


s.s.rock

  • Závislák
  • ****
  • Příspěvků: 473
    • Zobrazit profil
    • E-mail
Re:tv barrandov nové logo?
« Odpověď #12 kdy: 24. 06. 2013, 16:07:08 »
omlouvám se myslel jsem že barrandov bude mít nové logo ale asi ne
To zcela určitě ne, mě se to nezdálo hned od začátku. Spíš než tohle mi ale vadí že ještě do teď (16.00) neprehodili EPG které furt běží na té mrtvé obrazovce. :-(


Bohumír Džubej

  • Závislák
  • ****
  • Příspěvků: 377
    • Zobrazit profil
    • E-mail
Re:tv barrandov nové logo?
« Odpověď #13 kdy: 24. 06. 2013, 16:38:56 »
Už jsem do ČRa napsal, ale nechce se mi věřit, že by o tom nevěděli. Asi mají nějaký problém.
Planar IT-15T2.


ivovi

  • Profík
  • *****
  • Příspěvků: 1 540
    • Zobrazit profil
Re:tv barrandov nové logo?
« Odpověď #14 kdy: 24. 06. 2013, 18:26:33 »
Uz EPG nahodili na obe pozice.


 

reklama