reklama

Autor Téma: očko Gold v dvb-t už jede  (Přečteno 10445 krát)

Luboš T.

  • Profík
  • *****
  • Příspěvků: 728
    • Zobrazit profil
Re:očko Gold v dvb-t už jede
« Odpověď #30 kdy: 29. 05. 2013, 20:32:15 »
Taky vám ten zvuk tak blbne? :-o
Zpočátku blbnul zvuk ale po chvilce to přestalo a hraje to bez přerušení plynule.

Reklama

  • Stálý člen
  • *****
  • Příspěvků: 0

reklama



s.s.rock

  • Závislák
  • ****
  • Příspěvků: 473
    • Zobrazit profil
    • E-mail
Re:očko Gold v dvb-t už jede
« Odpověď #31 kdy: 29. 05. 2013, 21:50:01 »
Já mám 2 telky, na jedné to hraje normálně a na druhé blbne. Zkoušel jsem to i preladit ale nic nepomáhá. :-( Doufám že mi to nebude dělat až pojedou na ostro to by mě fakt sr*lo. :-((


Dominik Laskaj

  • Nováček
  • *
  • Příspěvků: 17
    • Zobrazit profil
    • E-mail
Re:očko Gold v dvb-t už jede
« Odpověď #32 kdy: 29. 05. 2013, 21:58:36 »
Mám TV Panasonic a DVD Panasonic. V TV je zvuk velmi sekaný a na DVD není vůbec žádný zvuk. Doufám, že se to do startu vychytá.


Jan Novák

  • Profík
  • *****
  • Příspěvků: 2 436
    • Zobrazit profil
    • E-mail
Re:očko Gold v dvb-t už jede
« Odpověď #33 kdy: 29. 05. 2013, 22:01:46 »
U mě je to zvláštní. Jedna písnička (Habera) neposlouchatelná, následující (Queen) bez chyb. Mají na to dva dny...

Edit: Tak v dalším kole už byly výpadky zase jinak. Navíc se při výpadku změní i obraz, jakoby se zobrazil jen zastavený půlsnímek.
« Poslední změna: 29. 05. 2013, 22:47:18 od Jan Novák »


Tech7

  • Závislák
  • ****
  • Příspěvků: 419
    • Zobrazit profil
    • E-mail
Re:očko Gold v dvb-t už jede
« Odpověď #34 kdy: 29. 05. 2013, 23:38:08 »
Zvuk byl přepnut na Joint Stereo
Audio
ID                               : 192 (0xC0)
Format                           : MPEG Audio
Format version                   : Version 1
Format profile                   : Layer 2
Mode                             : Joint stereo
Duration                         : 21s 408ms
Bit rate mode                    : Constant
Bit rate                         : 128 Kbps
Channel(s)                       : 2 channels
Sampling rate                    : 48.0 KHz
Video delay                      : 26h 30mn (tomu nevěřím)
Stream size                      : 335 KiB (12%)
DVB-T: Intel Core i3-530, TechniSat AirStar2, AVerTV Volar HD Pro
DAB: Iriver B20, Iriver B20, Pure One Mini Series II, Tesco DR1403R-CE

Reklama

  • Stálý člen
  • *****
  • Příspěvků: 0

reklama



Jan Novák

  • Profík
  • *****
  • Příspěvků: 2 436
    • Zobrazit profil
    • E-mail
Re:očko Gold v dvb-t už jede
« Odpověď #35 kdy: 30. 05. 2013, 00:34:46 »
Video delay                      : 26h 30mn (tomu nevěřím)
Předpokládám, že jde o výpis z MPC. Mně hlásí u právě teď udělané nahrávky to samé. Že by opět problém ČRa s A/V syncem? Aspoň jsem ulovil podpis jejich odbavovacího systému (demo :-) ). Cena je příznivá, je vidět, že odbavovat takový kanál dnes není příliš velký problém: http://www.cinegy.com/jml/index.php/en/products-mainmenu-50/playout-and-automation.html
« Poslední změna: 30. 05. 2013, 00:38:13 od Jan Novák »


Jan Novák

  • Profík
  • *****
  • Příspěvků: 2 436
    • Zobrazit profil
    • E-mail
Re:očko Gold v dvb-t už jede
« Odpověď #36 kdy: 30. 05. 2013, 12:31:33 »
Teď už mi MPC píše:
Delay relative to video          : -681ms
Což vypadá rozumně.


Tech7

  • Závislák
  • ****
  • Příspěvků: 419
    • Zobrazit profil
    • E-mail
Re:očko Gold v dvb-t už jede
« Odpověď #37 kdy: 30. 05. 2013, 12:32:13 »
Parádní úlovek (Cinegy Demo) :)

Nyní už mi to píše běžnou hodnotu Video delay

General
Complete name                    : H:\TV\2013-05-30_12-18-48_Ocko hity_Óčko Gold.mpg
Format                           : MPEG-PS
File size                        : 4.10 MiB
Duration                         : 31s 968ms
Overall bit rate                 : 1 076 Kbps

Video
ID                               : 224 (0xE0)
Format                           : MPEG Video
Format version                   : Version 2
Format profile                   : Main@Main
Format settings, BVOP            : Yes
Format settings, Matrix          : Default
Format settings, GOP             : M=3, N=12
Duration                         : 31s 960ms
Bit rate mode                    : Variable
Bit rate                         : 927 Kbps
Width                            : 544 pixels
Height                           : 576 pixels
Display aspect ratio             : 16:9
Frame rate                       : 25.000 fps
Color space                      : YUV
Chroma subsampling               : 4:2:0
Bit depth                        : 8 bits
Scan type                        : Interlaced
Scan order                       : Top Field First
Bits/(Pixel*Frame)               : 0.118
Stream size                      : 3.53 MiB (86%)


Audio
ID                               : 192 (0xC0)
Format                           : MPEG Audio
Format version                   : Version 1
Format profile                   : Layer 2
Mode                             : Joint stereo
Duration                         : 31s 968ms
Bit rate mode                    : Constant
Bit rate                         : 128 Kbps
Channel(s)                       : 2 channels
Sampling rate                    : 48.0 KHz
Video delay                      : -681ms
Stream size                      : 500 KiB (12%)


Created with: DP MediaInfo version 1.05 (c) by Dirk Paehl
MediaInfoLib - v0.7.34


----
než jsem to sesmolil, tak jste mě předběhl :)


Každopádně si myslím že hodnota 26h 30mn byl nesmysl, to bych musel čekat na zvuk po přepnutí kanálu víc než den :D
« Poslední změna: 30. 05. 2013, 12:43:26 od Tech7 »
DVB-T: Intel Core i3-530, TechniSat AirStar2, AVerTV Volar HD Pro
DAB: Iriver B20, Iriver B20, Pure One Mini Series II, Tesco DR1403R-CE


s.s.rock

  • Závislák
  • ****
  • Příspěvků: 473
    • Zobrazit profil
    • E-mail
Re:očko Gold v dvb-t už jede
« Odpověď #38 kdy: 30. 05. 2013, 14:30:46 »
Super, nevím co dělali se zvukem ale už mi to na obou TV hraje normálně. ;-)


Jan Novák

  • Profík
  • *****
  • Příspěvků: 2 436
    • Zobrazit profil
    • E-mail
Re:očko Gold v dvb-t už jede
« Odpověď #39 kdy: 30. 05. 2013, 14:47:52 »
Každopádně si myslím že hodnota 26h 30mn byl nesmysl, to bych musel čekat na zvuk po přepnutí kanálu víc než den :D
Nejspíš přetečení nebo podtečení, určitě by se dal někde najít přípustný rozsah. Hlavně je vidět, že na rozdíl od Muxu4 se tady snaží chyby rychle opravit.

A ještě jeden noční úlovek. "Monoskop"
« Poslední změna: 30. 05. 2013, 17:05:58 od Jan Novák »


 

reklama