reklama

Autor Téma: očko Gold v dvb-t už jede  (Přečteno 10448 krát)

vaclav blumel

  • Nováček
  • *
  • Příspěvků: 34
    • Zobrazit profil
    • E-mail
očko Gold v dvb-t už jede
« kdy: 20. 05. 2013, 00:15:49 »
Očko Gold uš jede pod názvem očko hity
Text : ,,the Show Must Go on,,
                                              Queen


Óčko Gold od 1.června i  vaši televzii !

Reklama

  • Stálý člen
  • *****
  • Příspěvků: 0

reklama



Roman Bárta

  • Závislák
  • ****
  • Příspěvků: 450
  • Tape deck - nádherná nostalgie....
    • Zobrazit profil
    • E-mail
Re:očko Gold v dvb-t už jede
« Odpověď #1 kdy: 20. 05. 2013, 00:36:28 »
Tak jsem to zkusil,a je to pravda.
Plzeň-k 52
DVB-T-
 k.33,58,55 Buková Hora, 25 Čer.Studnice, 30 Ústí n.Labem, 44 Louštín, 60 (38) Trutnov, RS7-50 Klínovec, 21 Ústí n. Labem, reg.síť 9-Most
             34,48,52-Krašov, 56, RS7-38, RS1-37- Plzeň
Dvb-s -0,8W, 5W, 5E, 13°E, 19,2°E, 23,5°E, 28,2°E + Skylink+Freesat
UPC Kabel
FM-Sony ST-SE 700


Karel Cibulka

  • Profík
  • *****
  • Příspěvků: 627
  • Fanda bezdrátové komunikace
    • ICQ komunikátor - 405782218
    • Zobrazit profil
    • E-mail
Re:očko Gold v dvb-t už jede
« Odpověď #2 kdy: 20. 05. 2013, 00:45:37 »
Tak jsem to zkusil,a je to pravda.
Plzeň-k 52
Krašov K 52  ;) souhlas  :D MUX3
Jsem rád že věci fungují tak jak mají =)


hc94

  • Nováček
  • *
  • Příspěvků: 28
    • Zobrazit profil
    • E-mail
Re:očko Gold v dvb-t už jede
« Odpověď #3 kdy: 20. 05. 2013, 06:35:31 »
Zlín k25 vše OK   :)   jen škoda toho k41 odkud vysílají HD programy ČT .Výkon 500W je doopravdy nic moc  >:(


Bohumír Džubej

  • Závislák
  • ****
  • Příspěvků: 377
    • Zobrazit profil
    • E-mail
Re:očko Gold v dvb-t už jede
« Odpověď #4 kdy: 20. 05. 2013, 07:10:46 »
Potvrzuji také Kleť K22.
Planar IT-15T2.

Reklama

  • Stálý člen
  • *****
  • Příspěvků: 0

reklama



s.s.rock

  • Závislák
  • ****
  • Příspěvků: 473
    • Zobrazit profil
    • E-mail
Re:očko Gold v dvb-t už jede
« Odpověď #5 kdy: 20. 05. 2013, 07:37:06 »
Ano ale pod slovem jede jsem si představoval alespoň nějakou promo smyčku ne jen monoskop s příslibem. :-(


Lukáš Polák

  • Profík
  • *****
  • Příspěvků: 2 681
  • Bývalý redaktor DigiZone.cz, nyní Český rozhlas
    • Zobrazit profil
    • Digitální rádio
    • E-mail
Re:očko Gold v dvb-t už jede
« Odpověď #6 kdy: 20. 05. 2013, 08:18:15 »
Díky, víme o tom. Vydáme na devátou hodinu.
Od září 2007 do ledna 2016 byl redaktorem DigiZone.cz. O oblast digitálního vysílání se zajímá již od roku 2001. Od února 2016 má na starosti web Českého rozhlasu Digital: http://www.rozhlas.cz/digital/


Korislav Korislavič

  • Člen
  • **
  • Příspěvků: 62
    • Zobrazit profil
    • E-mail
Re:očko Gold v dvb-t už jede
« Odpověď #7 kdy: 20. 05. 2013, 08:27:11 »
Krásné 34 a Černá H. 60 také.


Tech7

  • Závislák
  • ****
  • Příspěvků: 419
    • Zobrazit profil
    • E-mail
Re:očko Gold v dvb-t už jede
« Odpověď #8 kdy: 20. 05. 2013, 12:27:17 »
Parametry v DVB-T mux3:

General
Complete name                    : H:\TV\2013-05-20_12-20-25_Ocko hity_.mpg
Format                           : MPEG-PS
File size                        : 24.7 MiB
Duration                         : 3mn 29s
Overall bit rate                 : 989 Kbps

Video
ID                               : 224 (0xE0)
Format                           : MPEG Video
Format version                   : Version 2
Format profile                   : Main@Main
Format settings, BVOP            : Yes
Format settings, Matrix          : Default
Format settings, GOP             : M=3, N=12
Duration                         : 3mn 29s
Bit rate mode                    : Variable
Bit rate                         : 841 Kbps
Width                            : 544 pixels
Height                           : 576 pixels
Display aspect ratio             : 16:9
Frame rate                       : 25.000 fps
Color space                      : YUV
Chroma subsampling               : 4:2:0
Bit depth                        : 8 bits
Scan type                        : Interlaced
Scan order                       : Top Field First
Bits/(Pixel*Frame)               : 0.107
Stream size                      : 21.0 MiB (85%)

Audio
ID                               : 192 (0xC0)
Format                           : MPEG Audio
Format version                   : Version 1
Format profile                   : Layer 2
Duration                         : 3mn 29s
Bit rate mode                    : Constant
Bit rate                         : 128 Kbps
Channel(s)                       : 2 channels
Sampling rate                    : 48.0 KHz
Video delay                      : 3s 558ms
Stream size                      : 3.19 MiB (13%)

Created with: DP MediaInfo version 1.05 (c) by Dirk Paehl
MediaInfoLib - v0.7.34
DVB-T: Intel Core i3-530, TechniSat AirStar2, AVerTV Volar HD Pro
DAB: Iriver B20, Iriver B20, Pure One Mini Series II, Tesco DR1403R-CE


Jiří Job

  • Závislák
  • ****
  • Příspěvků: 298
    • Zobrazit profil
    • E-mail
Re:očko Gold v dvb-t už jede
« Odpověď #9 kdy: 20. 05. 2013, 12:57:09 »
Já vím že to trochu vybočuje od tématu, ale zajímalo by mě jak to bude s Webem? Zda Očko Gold bude mít zvláštní web nebo bude používat hlavní web hlavního Očka?


jackino

  • Nováček
  • *
  • Příspěvků: 37
    • Zobrazit profil
    • E-mail
Re:očko Gold v dvb-t už jede
« Odpověď #10 kdy: 20. 05. 2013, 13:02:11 »
Břeclav 59 kanál taky OK :-* je tam hláška o startu 1.6 2013
Dvb-s//13°+19.2°+23.5°+42°
Dvb-t// Cze+Svk+Aut


MartinCe

  • Člen
  • **
  • Příspěvků: 51
    • Zobrazit profil
Re:očko Gold v dvb-t už jede
« Odpověď #11 kdy: 20. 05. 2013, 13:57:44 »
Jede, ale myslím si, že moc dlouho nevydrží, jelikož Retro music tv má stejné zaměření a je málo rušená reklamami. Na Očku jsou dost často a hodně otravný reklamy.


pepa novák

  • Profík
  • *****
  • Příspěvků: 638
    • Zobrazit profil
    • E-mail
Re:očko Gold v dvb-t už jede
« Odpověď #12 kdy: 20. 05. 2013, 14:26:15 »
pane MartineCe - právě to, že Óčko má více reklam může být známkou toho, že jejich obchodní model je úspěšnější a tedy přežije. Je si totiž nutno uvědomit co je jinak neplacená komerční TV, tedy TV žijící z reklamy - je to prodejní kanál, reklama na zboží, to ostatní je jen omáčka, lákadlo na sledovanost.


Jan Novák

  • Profík
  • *****
  • Příspěvků: 2 436
    • Zobrazit profil
    • E-mail
Re:očko Gold v dvb-t už jede
« Odpověď #13 kdy: 20. 05. 2013, 15:11:09 »
Taky se obávám, že na RMTV reklamy přibudou. Doteď za RMux4 neplatili skoro nic, RMux7 bude mnohem dražší a reklama je jediná možnost, jak vydělat. Ale snad ji budou dávat inteligentněji než Óčko.


Libor Dospiva

  • Člen
  • **
  • Příspěvků: 61
    • Zobrazit profil
    • E-mail
Re:očko Gold v dvb-t už jede
« Odpověď #14 kdy: 20. 05. 2013, 15:55:36 »
Docela mě překvapuje, že na Óčku zatím neběží žádné promo nebo upoutávka na jejich novou sesterskou stanici.


 

reklama