reklama

reklama

Autor Téma: ČT4 HD v MUXu 4 - NEFUNGUJE ZVUK!  (Přečteno 1855 krát)

blueflash .

  • Profík
  • *****
  • Příspěvků: 904
    • ICQ komunikátor - 299934152
    • Zobrazit profil
    • Můj YouTube kanál:
    • E-mail
ČT4 HD v MUXu 4 - NEFUNGUJE ZVUK!
« kdy: 11. 08. 2012, 13:26:45 »
Dosti nuvěřitelný problém s MUXem 4 - Někdy od 8:00 ráno pozoruju výpadek zvuku. ČT2 HD a Nova HD v MUXu 4 jdou normálně. ČT 4 HD v MUXu 3 jde taky.

Ukázka (15 MB):
Kód: [Vybrat]
http://uloz.to/xRvExtw/ct-4-hd-v-muxu-4-bez-zvuku-ts
Při vložení do tsMixeruGUI se mi žádná zvuková stopa nedetekuje, v Media Info ano...

Citace
General
ID                               : 1

Format                           : MPEG-TS
File size                        : 15.6 MiB
Duration                         : 21s 283ms
Overall bit rate                 : 6 127 Kbps

Video
ID                               : 131 (0x83)
Menu ID                          : 1 (0x1)
Format                           : AVC
Format/Info                      : Advanced Video Codec
Format profile                   : High@L4.0
Format settings, CABAC           : Yes
Format settings, ReFrames        : 4 frames
Format settings, GOP             : M=1, N=30
Codec ID                         : 27
Duration                         : 21s 760ms
Bit rate mode                    : Constant
Bit rate                         : 5 442 Kbps
Width                            : 1 920 pixels
Height                           : 1 080 pixels
Display aspect ratio             : 16:9
Frame rate                       : 25.000 fps
Color space                      : YUV
Chroma subsampling               : 4:2:0
Bit depth                        : 8 bits
Scan type                        : Interlaced
Scan order                       : Top Field First
Bits/(Pixel*Frame)               : 0.105
Stream size                      : 14.4 MiB (93%)
Color primaries                  : BT.709-5, BT.1361, IEC 61966-2-4, SMPTE RP177
Transfer characteristics         : BT.709-5, BT.1361
Matrix coefficients              : BT.709-5, BT.1361, IEC 61966-2-4 709, SMPTE RP177

Audio
ID                               : 132 (0x84)
Menu ID                          : 1 (0x1)
Format                           : MPEG Audio
Format version                   : Version 1
Format profile                   : Layer 2
Codec ID                         : 3
Duration                         : 20s 952ms
Bit rate mode                    : Constant
Bit rate                         : 256 Kbps
Channel(s)                       : 2 channels
Sampling rate                    : 48.0 KHz
Stream size                      : 655 KiB (4%)
Language                         : English
« Poslední změna: 11. 08. 2012, 14:04:53 od blueflash . »

Reklama

  • Stálý člen
  • *****
  • Příspěvků: 0

reklama



BLAZ

  • Nováček
  • *
  • Příspěvků: 36
    • Zobrazit profil
    • E-mail
Re:ČT4 HD v MUXu 4 - NEFUNGUJE ZVUK!
« Odpověď #1 kdy: 11. 08. 2012, 13:58:44 »
Jo jo, na vysílači Ústi K30 taky ČT4 HD bez zvuku


 

reklama