reklama

Autor Téma: Mono zvuk u pořadu z roku 2013  (Přečteno 2308 krát)

Tech7

  • Závislák
  • ****
  • Příspěvků: 419
    • Zobrazit profil
    • E-mail
Mono zvuk u pořadu z roku 2013
« kdy: 19. 05. 2013, 15:39:14 »
Nevěřil jsem vlastním uším, ale je to tak, Nova vysílá jednokanálový zvuk u pořadu Chceme žít s vámi z roku 2013.

General
Complete name                    : H:\TV\2013-05-19_15-32-11_NOVA_Chceme žít s vámi.mpg
Format                           : MPEG-PS
File size                        : 90.2 MiB
Duration                         : 3mn 28s
Overall bit rate                 : 3 623 Kbps

Video
ID                               : 224 (0xE0)
Format                           : MPEG Video
Format version                   : Version 2
Format profile                   : Main@Main
Format settings, BVOP            : Yes
Format settings, Matrix          : Default
Format settings, GOP             : M=3, N=12
Duration                         : 3mn 28s
Bit rate mode                    : Variable
Bit rate                         : 3 359 Kbps
Width                            : 720 pixels
Height                           : 576 pixels
Display aspect ratio             : 16:9
Frame rate                       : 25.000 fps
Standard                         : PAL
Color space                      : YUV
Chroma subsampling               : 4:2:0
Bit depth                        : 8 bits
Scan type                        : Interlaced
Scan order                       : Top Field First
Bits/(Pixel*Frame)               : 0.324
Stream size                      : 83.7 MiB (93%)

Audio
ID                               : 192 (0xC0)
Format                           : MPEG Audio
Format version                   : Version 1
Format profile                   : Layer 2
Duration                         : 3mn 28s
Bit rate mode                    : Constant
Bit rate                         : 192 Kbps
Channel(s)                       : 1 channel
Sampling rate                    : 48.0 KHz
Video delay                      : -438ms
Stream size                      : 4.78 MiB (5%)


« Poslední změna: 19. 05. 2013, 16:16:49 od Tech7 »
DVB-T: Intel Core i3-530, TechniSat AirStar2, AVerTV Volar HD Pro
DAB: Iriver B20, Iriver B20, Pure One Mini Series II, Tesco DR1403R-CE

Reklama

  • Stálý člen
  • *****
  • Příspěvků: 0

reklama



Stefan Bukovan

  • Profík
  • *****
  • Příspěvků: 914
    • Zobrazit profil
    • E-mail
Re:Mono zvuk u pořadu z roku 2013
« Odpověď #1 kdy: 19. 05. 2013, 21:06:59 »
Otázka znie - odkiaľ je to nahrávané? DVB-S, DVB-T, káblovka?

Pretože orezať to mohol kľudne distribútor.
Skylink CZ, MagioSat (nové)
OpenBox X-810, Ariva 210 HD Combo, ADB 5800SX, KAON CO1300
DG-380


Jan Novák

  • Profík
  • *****
  • Příspěvků: 2 441
    • Zobrazit profil
    • E-mail
Re:Mono zvuk u pořadu z roku 2013
« Odpověď #2 kdy: 19. 05. 2013, 21:16:10 »
Otázka znie - odkiaľ je to nahrávané? DVB-S, DVB-T, káblovka?

Pretože orezať to mohol kľudne distribútor.
Pokud by to ořezal distributor, tak se to bude týkat víc než jednoho pořadu. Spíš bych to viděl, že se na odbavení někdo uklikl. Stačí označit pořad jako mono a je to.


Tech7

  • Závislák
  • ****
  • Příspěvků: 419
    • Zobrazit profil
    • E-mail
Re:Mono zvuk u pořadu z roku 2013
« Odpověď #3 kdy: 19. 05. 2013, 21:17:39 »
DVB-T mux2, u stanic skupiny Nova se zvuk běžně přepíná stereo/mono, 192 kbps zůstává a kvalita zvuku se tedy zvyšuje.
DVB-T: Intel Core i3-530, TechniSat AirStar2, AVerTV Volar HD Pro
DAB: Iriver B20, Iriver B20, Pure One Mini Series II, Tesco DR1403R-CE


amatér Tondach

  • Závislák
  • ****
  • Příspěvků: 356
    • Zobrazit profil
    • E-mail
Re:Mono zvuk u pořadu z roku 2013
« Odpověď #4 kdy: 20. 05. 2013, 06:25:07 »
Otázka znie - odkiaľ je to nahrávané? DVB-S, DVB-T, káblovka?

Pretože orezať to mohol kľudne distribútor.
Otázka zní - jak to bylo nahrávané autory, ti to taky mohli nahrát mono ;)

Reklama

  • Stálý člen
  • *****
  • Příspěvků: 0

reklama



 

reklama