reklama

Zobrazit příspěvky

Tato sekce Vám umožňuje zobrazit všechny příspěvky tohoto uživatele. Prosím uvědomte si, že můžete vidět příspěvky pouze z oblastí Vám přístupných.


Příspěvky - Tech7

Stran: 1 [2] 3 4 ... 28
16
Tak jsem konečně vyvenčil Tesco DAB Rádio DR1403R-CE (to červené), vzal jsem ho na své oblíbené místo na Petřinách, kde jsem jednou naladil němce v FM s RDS na Sony Ericsson D750i@W800i v krkolomné pozici a jen jednou, výsledek předčil má očekávání.

Na první pokus z ruky jsem naladil 93 stanic. Poté s položením na stativ mi zabralo dost času najít vhodné místo a tak video není celé, nebyl čas, zato je vidět naladění všech 93 stanic.

Rádio bylo na stativu v cca 1 m výšce, levá ruka se snažila natáčet mobilem a pravá mačkat tlačítka. Jelikož je video točené z ruky, odpovídá tomu (ne)kvalita. Všimněte si že při mačkání stále jednoho tlačítka se mi rádio přeplo do FM módu. Zas mě to překvapilo, i když se tu o tom již psalo. Považuji to za detail, který rád rádiu za 324,50 Kč odpustím.

https://www.youtube.com/watch?v=HBGcW-dSMZg



 

17
Televizní stanice a jejich program / Re:Nové studio ČT24
« kdy: 02. 02. 2016, 11:26:57 »
Názor laika, nešlo by jednoduše snížit osvětlení ve studiu a tím by projekční plocha "vylezla"? Otázkou je jestli by to daly kamery v přijatelné kvalitě.

18
Do Teleka se vrací Seejay a Tip.


19
Televizní stanice a jejich program / Re:Politika na Déčku
« kdy: 15. 01. 2016, 12:43:19 »
Jenže ta sněhurka je vadná, má světlou pleť a proto nesmí na sluníčko. Poté se spáří s černochem a vznikne dokonalé dítě které slunko může!

A proč se asi vůbec jmenuje PRAVDIVÝ příběh o Sněhurce?

20
Digitální rozhlas / Re:DAB+ přijímač Tesco DR1403G
« kdy: 10. 01. 2016, 18:28:29 »
...
PS = Parametrické Stereo
...
SBR = Spectral band Replication
...

To slovíčko věrnou mi tam moc nesedí, prostě HE-AAC-V2 stojí za nic. Je špatné že tato komprese se používá v DAB+ a dokonce se to snad používá někde v DVB-S(T,C). Já si myslím že by se to mělo využívat jen v nejnutnějších případech jako poslech rádia na mobilu a i tam by to mělo být uživatelskou volbou.

Co říkáte "nové" stanici Regina Praha? Kromě toho že je úplně přeformátovaná mi naříkali uši z toho "žbrblání", prostě komprese velmi slyšitelná nejen na sluchátka. Na 96 kbps příšerný zvuk.

21
Digitální rozhlas / Re:DAB+ přijímač Tesco DR1403G
« kdy: 09. 01. 2016, 22:51:28 »
Podsvícení se dá v menu nastavit zvlášť pro zapnuté rádio microUSB, baterie a režim standby. Možnosti jsou Normal mode: High, Medium, Low a Off. Stanby mode: Low a Off.

22
Digitální rozhlas / Re:DAB+ přijímač Tesco DR1403G
« kdy: 09. 01. 2016, 10:41:12 »
Že já si na to modré nepočkal :D Musím ale říct že se mi to červené nakonec zalíbilo. Snad to nevypadá moc čtyřprocentně když se na ulici snažím zachytit multiplex :)


Edit: Kostku nebrat, mono výstup na sluchátka fakt ne.

23
Vyjádření Rádia 1 na ukončení vysílání v síti Teleko:

Reagujeme na dotazy ohledně digitálního vysílání přes společnost Teleco. Radio 1 bohužel neuzavíralo smlouvu se společností Teleco samostatně. Spolupráci navázala celá rozhlasová skupina, jíž je Radio 1 členem. Bylo nám sděleno, že se nepodařilo dojednat akceptovatelné podmínky, tedy že smlouva skočila. Je nám líto, že mnoho našich posluchačů má teď tyto komplikace. Budeme se snažit najít nějakou jinou možnost.


SeeJay Rádio a odpověď na FB:

SeeJay Radio v DAB brzičko zase budeme, vydržte, jen se obnovuje smlouva Emotikona smile

24
Digitální rozhlas / Re:Prodejci DAB rádií
« kdy: 24. 12. 2015, 12:15:03 »
Díky moc Pamětníku, již čirou náhodou mám. Mimochodem jste jediný kdo se nabídl.

25
Digitální rozhlas / Re:Prodejci DAB rádií
« kdy: 24. 12. 2015, 12:08:50 »
Tak mám červené, jediná barva. Běžně je tu nemají, to museli speciálně dovézt. Vůbec jsem tomu našemu Malému hypermerketu Příbram nedával šanci a tak mám radost že jsem sem náhodou zašel :-)

26
Digitální rozhlas / Re:Prodejci DAB rádií
« kdy: 24. 12. 2015, 03:35:06 »
Já byl na Andělu a za 650 modré a 559 ve slevě "černé", červené buď neměli, nebo bylo také za plnou cenu.

27
Obávám se že to bude točené v SD, jako snad všechna Barrandovská tvorba (alespoň zábavné pořady v SD jsou, ostatní nemám vypozorováno).

28
Televizní stanice a jejich program / Re:Nové logo TV Barrandov
« kdy: 05. 10. 2015, 14:44:40 »
Taky že je (větší).




29
Dobový článek v MF DNES.

30
Skylink / Re:HD programy NOVA
« kdy: 30. 09. 2015, 01:31:03 »
Vtipné je to jejich video na http://tv.nova.cz/hd vychvalující HD, které už na první pohled není HD ani omylem.

http://vod.tn.cz.prg.cmestatic.com/2015/09/29/1791498-hq.mp4

General
Complete name                            : E:\1791498-hq--- - vod.tn.cz.prg.cmestatic.com -  - 2015-09-30.mp4
Format                                   : MPEG-4
Format profile                           : Base Media / Version 2
Codec ID                                 : mp42
File size                                : 3.89 MiB
Duration                                 : 34s 368ms
Overall bit rate mode                    : Variable
Overall bit rate                         : 950 Kbps
Encoded date                             : UTC 2015-09-29 10:32:02
Tagged date                              : UTC 2015-09-29 10:32:02

Video
ID                                       : 1
Format                                   : AVC
Format/Info                              : Advanced Video Codec
Format profile                           : High@L3.0
Format settings, CABAC                   : Yes
Format settings, ReFrames                : 4 frames
Codec ID                                 : avc1
Codec ID/Info                            : Advanced Video Coding
Duration                                 : 34s 280ms
Bit rate mode                            : Variable
Bit rate                                 : 838 Kbps
Maximum bit rate                         : 1 500 Kbps
Width                                    : 720 pixels
Height                                   : 400 pixels
Display aspect ratio                     : 16:9
Frame rate mode                          : Constant
Frame rate                               : 25.000 fps
Color space                              : YUV
Chroma subsampling                       : 4:2:0
Bit depth                                : 8 bits
Scan type                                : Progressive
Bits/(Pixel*Frame)                       : 0.116
Stream size                              : 3.43 MiB (88%)
Language                                 : English
Encoded date                             : UTC 2015-09-29 10:32:02
Tagged date                              : UTC 2015-09-29 10:32:02

Audio
ID                                       : 2
Format                                   : AAC
Format/Info                              : Advanced Audio Codec
Format profile                           : LC
Codec ID                                 : 40
Duration                                 : 34s 368ms
Bit rate mode                            : Variable
Bit rate                                 : 110 Kbps
Maximum bit rate                         : 214 Kbps
Channel(s)                               : 2 channels
Channel positions                        : Front: L R
Sampling rate                            : 32.0 KHz
Compression mode                         : Lossy
Stream size                              : 462 KiB (12%)
Language                                 : English
Encoded date                             : UTC 2015-09-29 10:32:02
Tagged date                              : UTC 2015-09-29 10:32:02

Created with: DP MediaInfo version 1.2 (64bit)(c) by Dirk Paehl
MediaInfoLib - v0.7.69


Edit: Ještě mají LQ verzi, http://vod.tn.cz.prg.cmestatic.com/2015/09/29/1791498-lq.mp4
Kód: [Vybrat]
General
Complete name                            : E:\1791498-lq--- - vod.tn.cz.prg.cmestatic.com -  - 2015-09-30.mp4
Format                                   : MPEG-4
Format profile                           : Base Media / Version 2
Codec ID                                 : mp42
File size                                : 2.72 MiB
Duration                                 : 34s 368ms
Overall bit rate mode                    : Variable
Overall bit rate                         : 663 Kbps
Encoded date                             : UTC 2015-09-29 10:31:48
Tagged date                              : UTC 2015-09-29 10:31:48

Video
ID                                       : 1
Format                                   : AVC
Format/Info                              : Advanced Video Codec
Format profile                           : High@L3.0
Format settings, CABAC                   : Yes
Format settings, ReFrames                : 4 frames
Codec ID                                 : avc1
Codec ID/Info                            : Advanced Video Coding
Duration                                 : 34s 280ms
Bit rate mode                            : Variable
Bit rate                                 : 550 Kbps
Maximum bit rate                         : 800 Kbps
Width                                    : 720 pixels
Height                                   : 400 pixels
Display aspect ratio                     : 16:9
Frame rate mode                          : Constant
Frame rate                               : 25.000 fps
Color space                              : YUV
Chroma subsampling                       : 4:2:0
Bit depth                                : 8 bits
Scan type                                : Progressive
Bits/(Pixel*Frame)                       : 0.076
Stream size                              : 2.25 MiB (83%)
Language                                 : English
Encoded date                             : UTC 2015-09-29 10:31:48
Tagged date                              : UTC 2015-09-29 10:31:48

Audio
ID                                       : 2
Format                                   : AAC
Format/Info                              : Advanced Audio Codec
Format profile                           : LC
Codec ID                                 : 40
Duration                                 : 34s 368ms
Bit rate mode                            : Variable
Bit rate                                 : 110 Kbps
Maximum bit rate                         : 131 Kbps
Channel(s)                               : 2 channels
Channel positions                        : Front: L R
Sampling rate                            : 32.0 KHz
Compression mode                         : Lossy
Stream size                              : 462 KiB (17%)
Language                                 : English
Encoded date                             : UTC 2015-09-29 10:31:48
Tagged date                              : UTC 2015-09-29 10:31:48

Created with: DP MediaInfo version 1.2 (64bit)(c) by Dirk Paehl
MediaInfoLib - v0.7.69

Stran: 1 [2] 3 4 ... 28

reklama