Fórum Digizone.cz

Hlavní témata => Televize ve vysokém rozlišení (HDTV) => Téma založeno: jirkazdevitky 26. 04. 2014, 22:22:56

Název: stv1 hd - bitrate v dvb-t
Přispěvatel: jirkazdevitky 26. 04. 2014, 22:22:56
přijímá někdo v dvb-t tento program a může napsat kolik má z nahrávky bitrate?
Název: Re:stv1 hd - bitrate v dvb-t
Přispěvatel: Sanzi 27. 04. 2014, 11:03:29
Bible, The (TV seriál 2013) je Bit rate : 7 412 Kbps , 7 664 Kbps, 7 882 Kbps atd...  :)

mam tu nahravku Mahuliena, zlatá panna a je tam:
Kód: [Vybrat]
General
ID                                       : 1 (0x1)
Complete name                            : C:\Mahuliena, zlatá panna (HD).ts
Format                                   : MPEG-TS
File size                                : 4.64 GiB
Duration                                 : 1h 30mn
Overall bit rate mode                    : Variable
Overall bit rate                         : 7 370 Kbps

Video
ID                                       : 3302 (0xCE6)
Menu ID                                  : 1 (0x1)
Format                                   : AVC
Format/Info                              : Advanced Video Codec
Format profile                           : High@L4.0
Format settings, CABAC                   : Yes
Format settings, ReFrames                : 4 frames
Codec ID                                 : 27
Duration                                 : 1h 30mn
Bit rate                                 : 6 812 Kbps
Width                                    : 1 920 pixels
Height                                   : 1 080 pixels
Display aspect ratio                     : 16:9
Frame rate                               : 25.000 fps
Color space                              : YUV
Chroma subsampling                       : 4:2:0
Bit depth                                : 8 bits
Scan type                                : MBAFF
Bits/(Pixel*Frame)                       : 0.131
Stream size                              : 4.28 GiB (92%)

Název: Re:stv1 hd - bitrate v dvb-t
Přispěvatel: jirkazdevitky 27. 04. 2014, 11:22:07
mam tu nahravku Mahuliena, zlatá panna a je tam:
Kód: [Vybrat]
General
ID                                       : 1 (0x1)
Complete name                            : C:\Mahuliena, zlatá panna (HD).ts
Format                                   : MPEG-TS
File size                                : 4.64 GiB
Duration                                 : 1h 30mn
Overall bit rate mode                    : Variable
Overall bit rate                         : 7 370 Kbps

Video
ID                                       : 3302 (0xCE6)
Menu ID                                  : 1 (0x1)
Format                                   : AVC
Format/Info                              : Advanced Video Codec
Format profile                           : High@L4.0
Format settings, CABAC                   : Yes
Format settings, ReFrames                : 4 frames
Codec ID                                 : 27
Duration                                 : 1h 30mn
Bit rate                                 : 6 812 Kbps
Width                                    : 1 920 pixels
Height                                   : 1 080 pixels
Display aspect ratio                     : 16:9
Frame rate                               : 25.000 fps
Color space                              : YUV
Chroma subsampling                       : 4:2:0
Bit depth                                : 8 bits
Scan type                                : MBAFF
Bits/(Pixel*Frame)                       : 0.131
Stream size                              : 4.28 GiB (92%)


Tak to jsem nečekal že bude přenosová rychlost u stv1 tak malá, u stejné délky 90 minut vychází film z čt1 přes dvb-t na cca 6,8-7 GB, bitrate má 11,5 mb/s

Přijímáš stv 1 jen přes dvb-t nebo i z kabelovky?
Název: Re:stv1 hd - bitrate v dvb-t
Přispěvatel: jirkazdevitky 27. 04. 2014, 11:38:04
Bible, The (TV seriál 2013) je Bit rate : 7 412 Kbps , 7 664 Kbps, 7 882 Kbps atd...  :)

Je fajn že se ti tu pohádku podařilo nahrát, v nativu dávali minulý víkend asi taky další slovenské pohádky: šípková růženka, falošný princ a galoše štastia, nemáš náhodou některou nahrávku? Nestihl jsem zkontrolovat
Název: Re:stv1 hd - bitrate v dvb-t
Přispěvatel: Jan Novák 27. 04. 2014, 13:26:29
Tak to jsem nečekal že bude přenosová rychlost u stv1 tak malá, u stejné délky 90 minut vychází film z čt1 přes dvb-t na cca 6,8-7 GB, bitrate má 11,5 mb/s
Těch 11,5Mb/s u ČT1 z RS7 musí být veliká náhoda, to v té době musela ČT2 i ČT4 vysílat něco rozmazaného nebo černobílého. Protože průměrně vychází na kanál asi 7Mb/s. Nebo je to z DVB-T ale u UPC?
Název: Re:stv1 hd - bitrate v dvb-t
Přispěvatel: pajas2 27. 04. 2014, 13:31:57
Tak to jsem nečekal že bude přenosová rychlost u stv1 tak malá, u stejné délky 90 minut vychází film z čt1 přes dvb-t na cca 6,8-7 GB, bitrate má 11,5 mb/s
Těch 11,5Mb/s u ČT1 z RS7 musí být veliká náhoda, to v té době musela ČT2 i ČT4 vysílat něco rozmazaného nebo černobílého. Protože průměrně vychází na kanál asi 7Mb/s. Nebo je to z DVB-T ale u UPC?
Kolem 11 Mbit/s má ČT 1 HD na Astře 23,5E. V DVB-T RS7 je to průměrně 4,8 Mbit/s (obraz+zvuk).
Název: Re:stv1 hd - bitrate v dvb-t
Přispěvatel: micha 28. 04. 2014, 12:09:04
Pro HD a kódování v H.264/AVC je bit rate optimální i z hlediska DVB-T kanálu.
Název: Re:stv1 hd - bitrate v dvb-t
Přispěvatel: ivovi 28. 04. 2014, 13:04:56
Test vcera vecer, DVB-T, zaznam 10 minut kazdy, postupne jeden po druhem.
  STV1HD (film, zvetseny) video tok asi 9 Mbit/s
  CT1HD (film, puvodni HD) video tok asi 3 Mbit/s
  CT2HD (film, puvodni HD) video tok asi 6 Mbit/s
Název: Re:stv1 hd - bitrate v dvb-t
Přispěvatel: jirkazdevitky 14. 05. 2014, 10:53:35
Test vcera vecer, DVB-T, zaznam 10 minut kazdy, postupne jeden po druhem.
  STV1HD (film, zvetseny) video tok asi 9 Mbit/s
  CT1HD (film, puvodni HD) video tok asi 3 Mbit/s
  CT2HD (film, puvodni HD) video tok asi 6 Mbit/s

ahoj, můžu se tě zeptat jestli přijímáš stv1 hd přes dvb-t nebo v dvb-t přes kabelovku? většina lidí na digizone psala, že se datový tok pohybuje mezi 6-8 mbps, tak nevím čím to může být, díky, Jirka
Název: Re:stv1 hd - bitrate v dvb-t
Přispěvatel: ivovi 14. 05. 2014, 11:47:16
DVB-T z V. Javoriny.  Byl to jen jeden 10 minutovy test, navic udaje z kazdeho prehravace/analyzatoru se dost ruzni. Taky je rozdil Mbps a mbps, kdyz uz jde o presnost. Rozdil 1 Mbit/s bych neresil.