Fórum Digizone.cz

Hlavní témata => Zemské digitální vysílání (DVB-T) => Téma založeno: vaclav blumel 20. 05. 2013, 00:15:49

Název: očko Gold v dvb-t už jede
Přispěvatel: vaclav blumel 20. 05. 2013, 00:15:49
Očko Gold uš jede pod názvem očko hity
Text : ,,the Show Must Go on,,
                                              Queen


Óčko Gold od 1.června i  vaši televzii !
Název: Re:očko Gold v dvb-t už jede
Přispěvatel: Roman Bárta 20. 05. 2013, 00:36:28
Tak jsem to zkusil,a je to pravda.
Plzeň-k 52
Název: Re:očko Gold v dvb-t už jede
Přispěvatel: Karel Cibulka 20. 05. 2013, 00:45:37
Tak jsem to zkusil,a je to pravda.
Plzeň-k 52
Krašov K 52  ;) souhlas  :D MUX3
Název: Re:očko Gold v dvb-t už jede
Přispěvatel: hc94 20. 05. 2013, 06:35:31
Zlín k25 vše OK   :)   jen škoda toho k41 odkud vysílají HD programy ČT .Výkon 500W je doopravdy nic moc  >:(
Název: Re:očko Gold v dvb-t už jede
Přispěvatel: Bohumír Džubej 20. 05. 2013, 07:10:46
Potvrzuji také Kleť K22.
Název: Re:očko Gold v dvb-t už jede
Přispěvatel: s.s.rock 20. 05. 2013, 07:37:06
Ano ale pod slovem jede jsem si představoval alespoň nějakou promo smyčku ne jen monoskop s příslibem. :-(
Název: Re:očko Gold v dvb-t už jede
Přispěvatel: Lukáš Polák 20. 05. 2013, 08:18:15
Díky, víme o tom. Vydáme na devátou hodinu.
Název: Re:očko Gold v dvb-t už jede
Přispěvatel: Korislav Korislavič 20. 05. 2013, 08:27:11
Krásné 34 a Černá H. 60 také.
Název: Re:očko Gold v dvb-t už jede
Přispěvatel: Tech7 20. 05. 2013, 12:27:17
Parametry v DVB-T mux3:

General
Complete name                    : H:\TV\2013-05-20_12-20-25_Ocko hity_.mpg
Format                           : MPEG-PS
File size                        : 24.7 MiB
Duration                         : 3mn 29s
Overall bit rate                 : 989 Kbps

Video
ID                               : 224 (0xE0)
Format                           : MPEG Video
Format version                   : Version 2
Format profile                   : Main@Main
Format settings, BVOP            : Yes
Format settings, Matrix          : Default
Format settings, GOP             : M=3, N=12
Duration                         : 3mn 29s
Bit rate mode                    : Variable
Bit rate                         : 841 Kbps
Width                            : 544 pixels
Height                           : 576 pixels
Display aspect ratio             : 16:9
Frame rate                       : 25.000 fps
Color space                      : YUV
Chroma subsampling               : 4:2:0
Bit depth                        : 8 bits
Scan type                        : Interlaced
Scan order                       : Top Field First
Bits/(Pixel*Frame)               : 0.107
Stream size                      : 21.0 MiB (85%)

Audio
ID                               : 192 (0xC0)
Format                           : MPEG Audio
Format version                   : Version 1
Format profile                   : Layer 2
Duration                         : 3mn 29s
Bit rate mode                    : Constant
Bit rate                         : 128 Kbps
Channel(s)                       : 2 channels
Sampling rate                    : 48.0 KHz
Video delay                      : 3s 558ms
Stream size                      : 3.19 MiB (13%)

Created with: DP MediaInfo version 1.05 (c) by Dirk Paehl
MediaInfoLib - v0.7.34
Název: Re:očko Gold v dvb-t už jede
Přispěvatel: Jiří Job 20. 05. 2013, 12:57:09
Já vím že to trochu vybočuje od tématu, ale zajímalo by mě jak to bude s Webem? Zda Očko Gold bude mít zvláštní web nebo bude používat hlavní web hlavního Očka?
Název: Re:očko Gold v dvb-t už jede
Přispěvatel: jackino 20. 05. 2013, 13:02:11
Břeclav 59 kanál taky OK :-* je tam hláška o startu 1.6 2013
Název: Re:očko Gold v dvb-t už jede
Přispěvatel: MartinCe 20. 05. 2013, 13:57:44
Jede, ale myslím si, že moc dlouho nevydrží, jelikož Retro music tv má stejné zaměření a je málo rušená reklamami. Na Očku jsou dost často a hodně otravný reklamy.
Název: Re:očko Gold v dvb-t už jede
Přispěvatel: pepa novák 20. 05. 2013, 14:26:15
pane MartineCe - právě to, že Óčko má více reklam může být známkou toho, že jejich obchodní model je úspěšnější a tedy přežije. Je si totiž nutno uvědomit co je jinak neplacená komerční TV, tedy TV žijící z reklamy - je to prodejní kanál, reklama na zboží, to ostatní je jen omáčka, lákadlo na sledovanost.
Název: Re:očko Gold v dvb-t už jede
Přispěvatel: Jan Novák 20. 05. 2013, 15:11:09
Taky se obávám, že na RMTV reklamy přibudou. Doteď za RMux4 neplatili skoro nic, RMux7 bude mnohem dražší a reklama je jediná možnost, jak vydělat. Ale snad ji budou dávat inteligentněji než Óčko.
Název: Re:očko Gold v dvb-t už jede
Přispěvatel: Libor Dospiva 20. 05. 2013, 15:55:36
Docela mě překvapuje, že na Óčku zatím neběží žádné promo nebo upoutávka na jejich novou sesterskou stanici.
Název: Re:očko Gold v dvb-t už jede
Přispěvatel: Luboš T. 20. 05. 2013, 16:02:23
Rozlišení je už dávno dané smlouvou kterou podepsaly když se opět rozjely v muxu3 tak čekat že se zvýší je dost niivní.
Název: Re:očko Gold v dvb-t už jede
Přispěvatel: Milan Bahník 21. 05. 2013, 19:34:09
Očko Gold uš jede pod názvem očko hity
Text : ,,the Show Must Go on,,
                                              Queen


Óčko Gold od 1.června i  vaši televzii !

Každý den je text jiný. Dneska tam je od Lucie Bílé.
Název: Re:očko Gold v dvb-t už jede
Přispěvatel: Dominik Laskaj 23. 05. 2013, 13:45:42
Na Óčku už začali vysílat upoutávku na Óčko GOLD. Kdyby se chtěl někdo podívat, tak je ve spodní části této stránky: http://ocko.tv/clanky/startuje-ocko-gold-5f33f40d.html  :)
Název: Re:očko Gold v dvb-t už jede
Přispěvatel: Jenda Nový 23. 05. 2013, 14:01:27
Název stanice Očko hity po stlačení epg je na psáno v Epg Očko Gold
Název: Re:očko Gold v dvb-t už jede
Přispěvatel: Luboš T. 23. 05. 2013, 16:13:00
OČKO GOLD je napsáno dole na obrazovce už od pondělka.
Název: Re:očko Gold v dvb-t už jede
Přispěvatel: Ondřej Honeger 28. 05. 2013, 16:04:25
nevíte kdy se v multiplexu 3 přejmenuje óčko hity na óčko gold?
Název: Re:očko Gold v dvb-t už jede
Přispěvatel: Luboš T. 28. 05. 2013, 17:07:43
Nevím o co vám jde,jestli se koukáte na černou obrazovku s bílým textem a vadí vám že vám to ukazuje OČKO HITY  a pod tím je napsáno OČKO GOLD?Do 31.5 je to pouze testovací vysílání tak i kdyby tam měli napsáno KAREL POTÁCEL SE DOPOTÁCEL tak nám to do31.5 může být jedno,nebo ne?
Název: Re:očko Gold v dvb-t už jede
Přispěvatel: s.s.rock 28. 05. 2013, 17:33:56
Vzhledem k tomu že si ocko zaregistrovalo jako název ocko hity tak ocko gold bych řekl ze je to takhle správně a tak to i zůstane. ;-)
Název: Re:očko Gold v dvb-t už jede
Přispěvatel: Petr Marecek 28. 05. 2013, 17:46:26
ve všech programech, kde očko gold od 1.6 je zařazeno je napsáno očko gold. Nutno podotknout, že se jedná jen o magazíny od ASTROSATU, tj. Tv star, Tv Magazín(kde není ani jednička Očka)a Tv mini. Tv expres zatím zaspal.
Název: Re:očko Gold v dvb-t už jede
Přispěvatel: Ondřej Honeger 28. 05. 2013, 17:50:40
já už vim o co jde www.zoznam.sk/5001/ocko-gold-zacalo-testovat-v-dvb-t/ celý si to přečtěte
Název: Re:očko Gold v dvb-t už jede
Přispěvatel: Ondřej Honeger 29. 05. 2013, 20:12:33
už to změnili z očka hity na očko gold a dali tam novou obrazovku
Název: Re:očko Gold v dvb-t už jede
Přispěvatel: Luboš T. 29. 05. 2013, 20:21:08
A je to i s muzikou a s oranžovým pozadím.Dnes to krátce představily v OČKO NEWS.Hrají tam to co je napsáno za interpreta.
Název: Re:očko Gold v dvb-t už jede
Přispěvatel: Ondřej Honeger 29. 05. 2013, 20:26:13
máte pravdu,když jsem psal tu informaci tak tam byl monoskop jako na family,love a zoom
Název: Re:očko Gold v dvb-t už jede
Přispěvatel: s.s.rock 29. 05. 2013, 20:29:25
Taky vám ten zvuk tak blbne? :-o
Název: Re:očko Gold v dvb-t už jede
Přispěvatel: Luboš T. 29. 05. 2013, 20:29:38
To jsem tak viděl taky ale bylo to tam jen krátce.Rozjíždět to budou v sobotu v 6.hodin ráno.
Název: Re:očko Gold v dvb-t už jede
Přispěvatel: Luboš T. 29. 05. 2013, 20:32:15
Taky vám ten zvuk tak blbne? :-o
Zpočátku blbnul zvuk ale po chvilce to přestalo a hraje to bez přerušení plynule.
Název: Re:očko Gold v dvb-t už jede
Přispěvatel: s.s.rock 29. 05. 2013, 21:50:01
Já mám 2 telky, na jedné to hraje normálně a na druhé blbne. Zkoušel jsem to i preladit ale nic nepomáhá. :-( Doufám že mi to nebude dělat až pojedou na ostro to by mě fakt sr*lo. :-((
Název: Re:očko Gold v dvb-t už jede
Přispěvatel: Dominik Laskaj 29. 05. 2013, 21:58:36
Mám TV Panasonic a DVD Panasonic. V TV je zvuk velmi sekaný a na DVD není vůbec žádný zvuk. Doufám, že se to do startu vychytá.
Název: Re:očko Gold v dvb-t už jede
Přispěvatel: Jan Novák 29. 05. 2013, 22:01:46
U mě je to zvláštní. Jedna písnička (Habera) neposlouchatelná, následující (Queen) bez chyb. Mají na to dva dny...

Edit: Tak v dalším kole už byly výpadky zase jinak. Navíc se při výpadku změní i obraz, jakoby se zobrazil jen zastavený půlsnímek.
Název: Re:očko Gold v dvb-t už jede
Přispěvatel: Tech7 29. 05. 2013, 23:38:08
Zvuk byl přepnut na Joint Stereo
Audio
ID                               : 192 (0xC0)
Format                           : MPEG Audio
Format version                   : Version 1
Format profile                   : Layer 2
Mode                             : Joint stereo
Duration                         : 21s 408ms
Bit rate mode                    : Constant
Bit rate                         : 128 Kbps
Channel(s)                       : 2 channels
Sampling rate                    : 48.0 KHz
Video delay                      : 26h 30mn (tomu nevěřím)
Stream size                      : 335 KiB (12%)
Název: Re:očko Gold v dvb-t už jede
Přispěvatel: Jan Novák 30. 05. 2013, 00:34:46
Video delay                      : 26h 30mn (tomu nevěřím)
Předpokládám, že jde o výpis z MPC. Mně hlásí u právě teď udělané nahrávky to samé. Že by opět problém ČRa s A/V syncem? Aspoň jsem ulovil podpis jejich odbavovacího systému (demo :-) ). Cena je příznivá, je vidět, že odbavovat takový kanál dnes není příliš velký problém: http://www.cinegy.com/jml/index.php/en/products-mainmenu-50/playout-and-automation.html (http://www.cinegy.com/jml/index.php/en/products-mainmenu-50/playout-and-automation.html)
Název: Re:očko Gold v dvb-t už jede
Přispěvatel: Jan Novák 30. 05. 2013, 12:31:33
Teď už mi MPC píše:
Delay relative to video          : -681ms
Což vypadá rozumně.
Název: Re:očko Gold v dvb-t už jede
Přispěvatel: Tech7 30. 05. 2013, 12:32:13
Parádní úlovek (Cinegy Demo) :)

Nyní už mi to píše běžnou hodnotu Video delay

General
Complete name                    : H:\TV\2013-05-30_12-18-48_Ocko hity_Óčko Gold.mpg
Format                           : MPEG-PS
File size                        : 4.10 MiB
Duration                         : 31s 968ms
Overall bit rate                 : 1 076 Kbps

Video
ID                               : 224 (0xE0)
Format                           : MPEG Video
Format version                   : Version 2
Format profile                   : Main@Main
Format settings, BVOP            : Yes
Format settings, Matrix          : Default
Format settings, GOP             : M=3, N=12
Duration                         : 31s 960ms
Bit rate mode                    : Variable
Bit rate                         : 927 Kbps
Width                            : 544 pixels
Height                           : 576 pixels
Display aspect ratio             : 16:9
Frame rate                       : 25.000 fps
Color space                      : YUV
Chroma subsampling               : 4:2:0
Bit depth                        : 8 bits
Scan type                        : Interlaced
Scan order                       : Top Field First
Bits/(Pixel*Frame)               : 0.118
Stream size                      : 3.53 MiB (86%)


Audio
ID                               : 192 (0xC0)
Format                           : MPEG Audio
Format version                   : Version 1
Format profile                   : Layer 2
Mode                             : Joint stereo
Duration                         : 31s 968ms
Bit rate mode                    : Constant
Bit rate                         : 128 Kbps
Channel(s)                       : 2 channels
Sampling rate                    : 48.0 KHz
Video delay                      : -681ms
Stream size                      : 500 KiB (12%)


Created with: DP MediaInfo version 1.05 (c) by Dirk Paehl
MediaInfoLib - v0.7.34


----
než jsem to sesmolil, tak jste mě předběhl :)


Každopádně si myslím že hodnota 26h 30mn byl nesmysl, to bych musel čekat na zvuk po přepnutí kanálu víc než den :D
Název: Re:očko Gold v dvb-t už jede
Přispěvatel: s.s.rock 30. 05. 2013, 14:30:46
Super, nevím co dělali se zvukem ale už mi to na obou TV hraje normálně. ;-)
Název: Re:očko Gold v dvb-t už jede
Přispěvatel: Jan Novák 30. 05. 2013, 14:47:52
Každopádně si myslím že hodnota 26h 30mn byl nesmysl, to bych musel čekat na zvuk po přepnutí kanálu víc než den :D
Nejspíš přetečení nebo podtečení, určitě by se dal někde najít přípustný rozsah. Hlavně je vidět, že na rozdíl od Muxu4 se tady snaží chyby rychle opravit.

A ještě jeden noční úlovek. "Monoskop"